nginx CF-RAY: 363174ddaa562816-SJC Download Eurovision.Song.Contest.2017.Semi-2.720p.MP3.x264.EBU.FEED Torrent - Kickass Torrents

Eurovision.Song.Contest.2017.Semi-2.720p.MP3.x264.EBU.FEED

seeders: 2
leechers: 3
updated:
Added by iceqbeic in TV
Torrent verified.

Eurovision.Song.Contest.2017.Semi-2.720p.MP3.x264.EBU.FEED (Size: 2.24 GiB )
Eurovision.Song.Contest.2017.Semi-2.720p.MP3.x264.EBU.FEED.icekube.mp42.24 GiB
Eurovision.Song.Contest.2017.Semi-2.720p.MP3.x264.EBU.FEED.icekube.txt2.34 KiB

Description

This is a reencode of the EBU feed "Eurovision Song Contest 2017: Kyiv (2ND SF) [FEED HDTV 1080i]" posted by Anonymous.

MP3 stereo sound kept intact. Chapters added. No speakers, no station logo and no commercials.

Original file size 39.51 GiB. Reencoded size 2,3 GiB. 

General
Format                         : MPEG-4
Format profile                 : Base Media / Version 2
Codec ID                       : mp42
File size                      : 2.24 GiB
Duration                       : 2h 13mn
Overall bit rate               : 2 412 Kbps

Video
ID                             : 1
Format                         : AVC
Format/Info                    : Advanced Video Codec
Format profile                 : [email protected]
Format settings, CABAC         : Yes
Format settings, ReFrames      : 4 frames
Codec ID                       : avc1
Codec ID/Info                  : Advanced Video Coding
Duration                       : 2h 13mn
Bit rate                       : 2 247 Kbps
Width                          : 1 274 pixels
Height                         : 718 pixels
Display aspect ratio           : 16:9
Frame rate mode                : Constant
Frame rate                     : 25.000 fps
Color space                    : YUV
Chroma subsampling             : 4:2:0
Bit depth                      : 8 bits
Scan type                      : Progressive
Bits/(Pixel*Frame)             : 0.098
Stream size                    : 2.09 GiB (93%)
Writing library                : x264 core 142 r2479 dd79a61
Color range                    : Limited
Color primaries                : BT.709
Transfer characteristics       : BT.709
Matrix coefficients            : BT.709

Audio
ID                             : 2
Format                         : MPEG Audio
Format version                 : Version 1
Format profile                 : Layer 3
Mode                           : Joint stereo
Codec ID                       : 6B
Duration                       : 2h 13mn
Bit rate mode                  : Constant
Bit rate                       : 160 Kbps
Channel(s)                     : 2 channels
Sampling rate                  : 48.0 KHz
Compression mode               : Lossy
Stream size                    : 152 MiB (7%)
Title                          : Stereo / Stereo
Writing library                : LAME3.98
Language                       : English

Sharing Widget


Download torrent
2.24 GiB 
seeders:2
leechers:3
Eurovision.Song.Contest.2017.Semi-2.720p.MP3.x264.EBU.FEED



To share this torrent use the code below and insert it into comments, status messages, forum posts or your signature.

Torrent: Eurovision.Song.Contest.2017.Semi-2.720p.MP3.x264.EBU.FEED

Trackers

tracker name
udp://tracker.coppersurfer.tk:6969/announce
udp://9.rarbg.me:2710/announce
udp://p4p.arenabg.ch:1337/announce
udp://tracker.leechers-paradise.org:6969/announce
udp://eddie4.nl:6969/announce
udp://thetracker.org:80/announce
udp://tracker.coppersurfer.tk:6969
udp://explodie.org:6969/announce
udp://tracker.aletorrenty.pl:2710/announce
udp://9.rarbg.to:2710/announce
udp://torrent.gresille.org:80/announce
udp://tracker.opentrackr.org:1337/announce
udp://tracker.piratepublic.com:1337/announce
udp://tracker.sktorrent.net:6969/announce
udp://zer0day.ch:1337/announce
??Torrent compatible trackers list

Locations

name
KickassTorrents
Torrent hash: 12783904FA211679DD68521D5B1FD536E894CB73

All Comments

audio
0/10
video
0/10
please, leave only comments related to that torrent
Sign In

iceqbeic
Please stay and seed! I have limited upstream!
Report a bug Open chat