nginx CF-RAY: 39147ed3dc924e66-DME Download Versailles S02E05 (720p HD soft Eng subs) Torrent - Kickass Torrents

Versailles S02E05 (720p HD soft Eng subs)

seeders: 1
leechers: 0
updated:
Added by RoaElson in TV
Torrent verified.

Versailles S02E05 (720p HD soft Eng subs) (Size: 956 MiB )
Versailles S02E05.mp4955.23 MiB
Torrent Downloaded From 1337x.to.txt0 B
Torrent Downloaded From Katcr.co - Kickasstorrents.txt72 B
Versailles S02E05.jpg719.63 KiB
About this torrent.txt1.46 KiB
Versailles S02E05.srt71.42 KiB

Description

Versailles S02E05 (720p HD soft Eng subs)

The king's continued insomnia renders him even more volatile, so loyalty counts for little, as Marchal finds to his cost. Claudine investigates the mystery toxin, while Sophie seeks a solution to her miserable marriage.

(with soft subtitles) 

First broadcast: 19 May 2017
Duration:  55 minutes


Media info:-
General
Format profile : Base Media
Codec ID : isom (isom/iso2/avc1/mp41)
File size : 955 MiB
Duration : 55mn 44s
Overall bit rate mode : Variable
Overall bit rate : 2 396 Kbps
Writing application : Lavf57.25.100 

Video
ID : 1
Format : AVC
Format/Info : Advanced Video Codec
Format profile : [email protected]
Format settings, CABAC : Yes
Format settings, ReFrames : 2 frames
Codec ID : avc1
Codec ID/Info : Advanced Video Coding
Duration : 55mn 44s
Bit rate mode : Variable
Bit rate : 2 297 Kbps
Maximum bit rate : 3 500 Kbps
Width : 1 280 pixels
Height : 720 pixels
Display aspect ratio : 16:9
Frame rate mode : Constant
Frame rate : 25.000 fps
Color space : YUV
Chroma subsampling : 4:2:0
Bit depth : 8 bits
Scan type : Progressive
Bits/(Pixel*Frame) : 0.100
Stream size : 916 MiB (96%)

Audio
ID : 2
Format : AAC
Format/Info : Advanced Audio Codec
Format profile : LC
Codec ID : 40
Duration : 55mn 44s
Bit rate mode : Variable
Bit rate : 93.5 Kbps
Maximum bit rate : 99.0 Kbps
Channel(s) : 2 channels
Channel positions : Front: L R
Sampling rate : 48.0 KHz
Frame rate : 46.875 fps (1024 spf)
Compression mode : Lossy
Stream size : 37.3 MiB (4%)

Sharing Widget


Download torrent
956 MiB 
seeders:1
leechers:0
Versailles S02E05 (720p HD soft Eng subs)



To share this torrent use the code below and insert it into comments, status messages, forum posts or your signature.

Torrent: Versailles S02E05 (720p HD soft Eng subs)

Trackers

tracker name
udp://tracker.coppersurfer.tk:6969/announce
udp://9.rarbg.me:2710/announce
udp://p4p.arenabg.ch:1337/announce
udp://tracker.leechers-paradise.org:6969/announce
udp://eddie4.nl:6969/announce
udp://thetracker.org:80/announce
udp://tracker.coppersurfer.tk:6969
udp://explodie.org:6969/announce
udp://tracker.aletorrenty.pl:2710/announce
udp://9.rarbg.to:2710/announce
udp://torrent.gresille.org:80/announce
udp://tracker.opentrackr.org:1337/announce
udp://tracker.piratepublic.com:1337/announce
udp://tracker.sktorrent.net:6969/announce
udp://zer0day.ch:1337/announce
??Torrent compatible trackers list

Locations

name
KickassTorrents
Torrent hash: 23B0F9FFEBE1835E3EA69CC56FA6CD57739202EF

All Comments

audio
0/10
video
0/10
please, leave only comments related to that torrent
Sign In

Report a bug Open chat